#TITLE:sdo china;
#SUBTITLE:;
#ARTIST:Unknown artist;
#TITLETRANSLIT:;
#SUBTITLETRANSLIT:;
#ARTISTTRANSLIT:;
#CREDIT:;
#BANNER:;
#BACKGROUND:;
#LYRICSPATH:;
#CDTITLE:;
#MUSIC:sdom2448.ogg;
#OFFSET:-1.605;
#SAMPLESTART:41.587;
#SAMPLELENGTH:12.000;
#SELECTABLE:YES;
#BPMS:0.000=150.068;
#STOPS:;
#BGCHANGES:;
// cache tags:
#FIRSTBEAT:0.500;
#LASTBEAT:269.500;
#SONGFILENAME:Songs/SDO 7/Oneken/sdom2448.sm;
#HASMUSIC:1;
#HASBANNER:0;
#MUSICLENGTH:110.400;
// end cache tags

//---------------dance-single - ----------------
#NOTES:
     dance-single:
     :
     Medium:
     1:
     0.990,1.000,1.000,0.181,1.000,578.000,162.000,20.000,0.000,6.000:
0000
0000
0000
1000
0000
0000
0000
0010
0000
0100
0000
0010
1000
0001
0000
0100
,
0010
0000
0000
0100
0010
0000
1001
0000
0000
0100
0010
0000
0010
0100
0000
0001
,
0000
1000
0000
0000
0010
0000
0000
0100
0001
0000
1000
0000
0010
0000
0100
0001
,
0000
0100
0010
0000
0010
0000
1000
0000
0000
0100
0000
0100
0000
0010
0010
0000
,
0100
0000
0000
0000
0001
0000
0001
0000
0010
0000
1000
0010
0000
0010
0100
0000
,
0010
0000
0000
0001
0000
0001
0100
0010
0000
0010
0000
0010
0000
1000
0010
0000
,
0010
0100
0000
0000
0010
0000
0001
0000
0001
0100
0010
0000
0010
1000
0000
0100
,
0010
0010
0000
0100
0001
0000
1001
0000
0000
0001
0000
0101
0101
0000
0101
0000
,
0010
1000
0000
0000
0110
0000
0000
0000
1001
0000
0010
0100
0101
0000
0110
0000
,
0101
0000
0010
1000
0001
0000
0010
0100
0101
0000
0010
0100
0000
0101
0000
0000
,
1010
0001
0000
0000
0110
0000
0000
0000
1001
0000
0110
0000
0101
0000
0100
0010
,
1001
0010
0101
0001
0001
0010
0110
0110
,
0010
1000
0000
0000
0010
0010
0000
0100
0001
0100
0010
0000
1010
0000
0101
0000
,
0110
0000
0110
0000
0101
0000
0010
0010
0000
1010
0000
0000
0101
0000
0110
0000
,
1001
0000
0000
0000
0110
0000
0000
0000
0101
0000
0100
0010
1000
0010
0000
0000
,
0101
0101
0000
0100
0010
0010
1000
0010
1010
0000
0110
0000
0110
0000
0110
0110
,
0000
0001
1000
0000
0000
0101
0000
0000
0000
1010
0001
0100
0110
0000
0101
0000
,
1001
0000
0010
0100
0101
0000
0110
0000
0101
0000
1010
0000
0101
0000
0110
0000
,
1001
0000
0110
0000
1001
0000
0110
0000
0101
0000
1001
0010
0100
0001
0101
0000
,
1010
0000
0111
0000
0001
1000
0000
0110
0101
0000
0000
0110
0000
1001
0010
0100
,
0101
0000
1000
0010
0101
0000
0100
0010
0000
1001
0000
0110
0000
0101
0000
1101
,
0000
0110
0000
0101
0000
1001
0000
0110
0000
0101
1001
0000
0010
0100
0101
0000
,
1001
0100
0000
0100
0010
0100
0001
1000
1001
0000
0110
0000
0110
0000
0001
1000
,
0000
0110
0101
0000
0001
0000
0101
0001
0010
0010
0000
0010
0000
0010
0010
0000
,
0100
0010
0000
1100
0000
0110
0010
0000
0100
0000
0010
0000
0010
0100
0000
0010
,
0100
0010
0100
0010
1000
0010
0110
0000
,
0001
0000
0000
0000
0010
0010
0000
0000
0100
0010
0000
1000
0010
0000
0100
0001
,
0000
0100
0010
0000
0000
0110
0000
0000
0010
0000
0100
0010
0000
0100
0010
0000
,
1000
0010
0100
0000
0010
0100
0000
0000
0001
0010
0000
0100
0010
0000
0100
0010
,
1000
0000
0100
0010
0000
0010
0100
0000
0001
0000
0100
0010
0000
0100
0010
0000
,
1000
0010
0100
0000
0010
0001
0000
0000
0110
0000
0011
0100
1000
0010
0100
0010
,
0001
0000
0010
0100
0000
0010
0010
0100
0000
0010
0000
0010
0000
0100
1000
0100
,
0010
0000
0000
0100
0010
0000
0100
0000
0010
0010
0000
0000
0010
1000
0010
0000
,
0010
0100
0010
0000
0010
0100
1010
0000
0010
0000
0110
0000
0010
0010
0000
0100
,
0001
0000
0100
0010
0100
0010
0000
0010
0000
1000
0010
0000
0110
0000
0001
0000
,
0001
0000
0100
0010
0000
0100
0010
0000
1000
0010
0000
0100
0010
0000
0010
0100
,
0000
0001
0000
0010
0000
0100
0020
0000
0000
0130
0000
0010
0010
0000
0100
1000
,
0100
0010
0000
0100
0010
0010
0100
0000
0010
0000
0100
1000
0000
0010
0000
0010
,
0001
0000
0001
0000
0011
0000
0100
1000
0100
0010
0000
0010
0010
0000
0100
0010
,
0000
0010
0001
0000
0010
0100
0000
0010
0010
0000
0001
0010
0000
0100
1000
0100
,
0020
0000
0000
0000
0000
0000
0030
0110
0000
0120
0000
1100
0000
0000
0030
0010
,
0000
0020
0000
0000
0000
0000
0000
0000
0000
0000
0030
0001
0000
0002
0000
0000
,
0003
0020
0000
0000
0000
0000
0000
0000
0000
0000
0000
0000
0000
0000
0000
0000
,
0000
0230
0000
0010
0010
0000
0010
0000
0010
0000
0010
0010
0000
0010
0000
0010
,
0320
0000
1000
0000
1000
0000
1000
0000
1000
0000
1000
0000
1000
0000
1000
1000
,
0000
1000
0000
0230
0010
0000
0010
0010
0000
0010
0000
0010
0000
0010
0010
0000
,
0010
0000
0302
0000
0100
0100
0000
0100
0000
0100
0000
0100
0100
0000
0100
0000
,
0100
0000
0023
1000
0000
1000
0000
1000
0000
1000
0000
1000
1000
0000
1000
0000
,
0030
0002
0100
0000
0100
0000
0100
0000
0100
0000
0100
0000
0100
0000
0100
0000
,
0100
0020
0003
1000
0000
0000
1000
1000
0000
1000
0000
1000
0000
1000
0000
0000
,
0030
0101
0000
0000
0110
0000
0110
0000
0001
1000
0010
0000
0101
0000
0110
0000
,
0110
0000
0001
0110
0000
0110
0000
1001
0000
0110
0000
0100
0010
1000
0001
0000
,
0010
0100
0001
1000
0010
0100
0001
0100
0110
0000
1001
0000
0010
0100
0101
0000
,
0110
0000
0101
0000
0110
0000
0110
0000
0101
0000
1001
0010
0110
0000
0001
0000
,
1010
0000
0101
0000
0110
0000
1001
0000
0010
0100
0001
0100
0010
1000
0001
0010
,
0100
0001
0000
0001
0000
0011
0000
0100
1010
0000
0110
0010
0000
0000
0110
0000
,
0002
0000
0000
0000
0000
0000
0000
0000
0023
0000
0000
0000
0000
0000
0000
0230
,
0000
0000
0000
0000
,
0300
1010
0000
0000
0000
0010
1000
0001
0000
0110
0000
0001
1000
0010
0100
0101
,
0000
0010
0000
0101
0000
0110
1000
0001
0110
0000
0101
1000
0010
0000
0101
0000
,
1010
0000
0101
0000
0110
0000
1001
0000
0110
0000
0101
0000
1010
0001
0100
0110
,
0000
1001
0000
0110
0000
1001
0000
0110
0000
0101
0000
0110
0000
1101
0000
0100
,
0000
0101
1000
0001
0000
0101
0000
0101
0000
1010
0000
0110
0000
0111
0000
0110
,
0000
1001
0000
0110
0000
0110
0000
0111
1000
0001
0110
0110
0000
1001
0000
0000
,
0110
0020
0100
0000
0000
0000
0000
0000
0030
0002
0000
0000
0000
0000
0000
0023
,
0000
0000
0000
0000
0100
0100
0100
0100
,
0000
2030
0000
0000
0000
0000
0000
0000
0000
0000
0000
0000
0000
0000
0000
0000
,
0000
0000
0000
3000
0000
0000
0000
0000
;

//---------------dance-single - ----------------
#NOTES:
     dance-single:
     :
     Easy:
     1:
     0.827,0.963,0.670,0.245,1.000,538.000,74.000,27.000,0.000,0.000:
0000
0000
0000
0000
1000
0000
0000
0000
0000
0000
0000
0100
0000
0000
0000
0010
0000
0000
0100
0000
0000
0000
0010
0000
0000
1000
0000
0000
0001
0000
0000
0000
,
0100
0000
0000
0010
0000
0000
0100
0000
0000
0010
0000
0000
0000
0000
1000
0000
0001
0000
0000
0000
0100
0000
0000
0000
0010
0000
0000
0100
0000
0000
0000
0001
,
0000
0000
0000
0000
0000
0000
0000
0000
0010
0000
0000
0000
0000
0000
0000
0100
0000
0000
0010
0000
0000
0000
0000
1000
0000
0000
0010
0000
0000
0000
0100
0000
,
0000
0000
0001
0000
0000
0000
0100
0000
0000
0010
0000
0000
0100
0000
0000
0000
0010
0000
0000
0000
0000
1000
0000
0000
0010
0000
0000
0000
0100
0000
0000
0000
,
0010
0000
0000
0000
0010
0000
0000
0000
0100
0010
0000
0000
0010
0000
0100
0000
,
0010
0000
0000
0100
0000
0000
0010
0000
0000
0000
1000
0000
0000
0010
0000
0000
0100
0000
0000
0000
0001
0000
0000
0000
0100
0000
0000
0000
0010
0000
0000
0000
,
0100
0000
0010
0000
0000
0000
0000
0000
0000
0100
0010
0000
0000
0000
0000
0000
0000
0010
0000
1000
0000
0000
0010
0000
0000
0000
0100
0000
0000
0010
0000
0000
,
0100
0000
0000
0010
0000
0000
0000
0000
0001
0000
0000
0000
0010
0000
0000
0000
0000
0010
0000
0000
0000
0010
0000
0000
0100
0000
0000
0010
0000
0000
0000
0000
,
0100
0010
0000
0000
0000
0000
0000
0000
0000
0001
0000
0000
0000
0000
0000
0000
0010
0000
0000
0010
0000
0000
0000
0100
0000
0010
0000
0000
0001
0000
0000
0000
,
0010
0000
0000
0000
0010
0000
0000
1000
0000
0000
0000
0010
0000
0000
0000
0100
0000
0010
0000
0000
0000
0100
0000
0000
0001
0000
0000
0000
0010
0000
0000
0000
,
0010
0000
0000
0000
0000
0000
0000
0000
0100
0000
0000
0000
0000
0000
0000
0010
0000
0000
0000
0010
0000
0000
0000
0001
0000
0000
0000
0000
0000
0010
0000
0010
,
0000
0000
0000
1000
0000
0000
0000
0100
0000
0010
0000
0000
0000
0010
0000
0000
0000
0100
0000
0000
0010
0000
0000
0000
0000
0100
0000
0000
0001
0000
0000
0000
,
0010
0000
0000
0100
0000
0000
0000
0000
0010
0000
0000
1000
0000
0000
0000
0000
0000
0010
0000
0100
0000
0000
0010
0000
0000
0100
0000
0000
0001
0000
0000
0000
,
0000
0000
1000
0000
0000
0010
0000
0000
0000
0100
0000
0000
0010
0000
0000
0000
0100
0000
0000
0000
0010
0000
0000
0000
0100
0000
0000
0001
0000
0000
0000
0000
,
0000
0010
0000
0000
0000
0000
0000
0000
0000
0010
0000
0000
0000
0000
0000
0000
0000
0100
0000
0000
0000
0010
0000
0000
0000
1000
0000
0000
0010
0000
0000
0000
,
0100
0000
0001
0000
0000
0000
0100
0000
0000
0010
0000
0000
0000
0010
0000
0000
0000
0000
0100
0000
0001
0000
0000
0000
0010
0000
0000
0000
0010
0000
0000
0000
,
0100
0001
0000
0000
0000
0000
0000
0000
0000
0110
0000
0000
0000
0000
0000
0000
0000
0010
1000
0000
0000
0010
0000
0000
0000
0101
0000
0000
0110
0000
0000
0000
,
0000
1001
0000
0000
0000
0110
0000
0000
0000
0101
0000
0000
0000
0010
1000
0000
0000
0001
0100
0000
0000
0110
0000
0000
0000
1001
0000
0000
0000
0110
0000
0000
,
0000
0101
0000
0000
0000
0000
0000
0000
0110
0000
0000
0000
1001
0000
0000
0000
0110
0000
0000
0000
0101
0000
0000
0000
1010
0000
0000
0000
0001
0100
0000
0000
,
0000
0110
0000
0000
0100
0010
0000
0000
1010
0000
0000
0001
0000
0100
0000
0000
0110
0000
0000
0000
1001
0000
0000
0000
0110
0000
0000
0000
0110
0000
0000
0000
,
0101
0000
0000
0000
0000
0000
0000
0000
0010
1000
0000
0010
0000
0000
1000
0001
0000
0000
0110
0000
0000
0000
0101
0000
0000
0000
0110
0000
0000
0101
0000
0000
,
0000
0100
0010
0000
1000
0000
0001
0000
0000
0100
0010
0000
0000
0000
0101
0000
0000
0100
0000
0010
0000
0110
0000
0000
0000
1001
0000
0000
0000
0010
0100
0000
,
0000
0101
0000
0000
0000
0000
0000
0000
0000
0110
0000
0000
0000
1001
0000
0000
0000
0110
0000
0000
0001
0100
0000
0000
0000
0101
0000
0000
0000
1010
0000
0000
,
0000
0101
0000
0000
0000
0110
0000
0000
1000
0001
0000
0000
0000
0110
0000
0000
0001
0000
0000
0100
0000
0010
0000
0000
0000
0010
0000
0000
0000
0010
0000
0000
,
0000
0010
0000
0000
0000
0010
0000
0000
0000
0100
0000
0000
0000
0010
0000
0000
0000
0000
0100
0000
0000
0010
0000
0000
0000
0000
0100
0000
0000
0000
0010
0000
,
0000
0000
0100
0000
0000
0000
0010
0000
0000
0000
0100
0000
0000
0000
0010
0000
0000
0000
0100
0000
0000
0000
0000
0020
0000
0000
0000
0000
0000
0030
0000
0000
,
0000
0010
0000
0000
0000
0000
0000
0000
0100
0000
0010
0000
0000
0000
0000
0000
0000
0000
0010
0000
0000
0000
1000
0000
0000
0001
0000
0000
0100
0000
0000
0010
,
0000
0000
0100
0000
0000
0000
0000
0010
0000
0000
0100
0000
0010
0000
0000
0000
0100
0000
0010
0000
0000
0000
0000
0100
0000
0001
0010
0000
0000
0000
0100
0000
,
0000
0010
0000
0000
0000
0000
1000
0000
0000
0100
0010
0000
0000
0000
0000
0100
0000
0010
0000
0000
0000
0000
0010
0000
0001
0000
0010
0000
0000
0100
0000
0000
,
0010
0000
0100
0000
0000
0000
0000
0010
0000
0000
0000
1000
0000
0100
0000
0000
0010
0000
0000
0000
0000
0000
0100
0010
0000
0001
0000
0000
0010
0000
0000
0000
,
0100
0010
0000
0000
0000
0000
0100
0000
0000
0000
0010
0000
0000
0000
0000
0100
0000
0000
1010
0000
0000
0000
0010
0000
0000
0000
0100
0000
0001
0000
0000
0020
,
0000
0000
0000
0000
0000
0000
0030
0000
0100
0000
0010
0000
0000
0000
0010
0000
0000
0100
1000
0000
0000
0100
0000
0000
0020
0000
0000
0000
0000
0000
0000
0030
,
0100
0000
0010
0000
0000
0000
0020
0000
0000
0100
0000
0000
0000
0000
0100
0000
0000
0000
0000
0000
0100
0000
0000
0100
0000
0000
0100
0000
0000
0000
0100
0000
,
0000
0000
0100
0000
0000
0000
0100
0000
0000
0000
0100
0000
0000
0100
0000
0000
0000
0100
0000
0000
0100
0000
0000
0000
0100
0000
0000
0000
0000
0000
0030
0000
,
0000
0020
0000
0000
0000
0000
0000
0130
0000
0000
0010
0000
0000
0100
0000
0020
0000
0000
0000
0000
0000
0030
1000
0000
0000
0010
0000
0000
0000
0100
0000
0000
,
0010
0000
0000
0000
0100
0000
0000
0000
0001
0000
0000
0000
0020
0000
0000
0000
0000
0000
0030
0000
0000
0100
0000
0000
0010
0000
0000
0000
0100
0000
0010
0000
,
0000
0000
0100
0000
0000
0010
0000
0000
0000
1000
0000
0000
0000
0010
0000
0000
0000
0100
0000
0000
0000
0010
0000
0000
0000
0010
0000
0000
0000
0100
0000
0000
,
0000
0010
0000
0000
0020
0000
0000
0000
0000
0000
0000
0000
0000
0000
0000
0000
0000
0000
0000
0000
0000
0030
0000
0100
0000
0010
0000
0000
0000
0000
0010
0000
,
0000
0000
0100
0000
0010
0000
0000
0000
1000
0000
0100
0000
0020
0000
0000
0000
0000
0000
0000
0030
0000
0100
0000
0010
0000
0000
0000
0010
0000
0000
0100
0000
,
0000
0000
0001
0000
0000
0000
0001
0000
0000
0000
0100
0000
0010
0000
0000
0000
0000
1000
0000
0000
0010
0000
0000
0000
0010
0000
0000
0100
0000
0000
0000
0000
,
0020
0000
0000
0000
0000
0000
0000
0000
0000
0000
0030
0100
0000
0010
0000
0000
0000
0100
0002
0000
0000
0000
0000
0000
0000
0000
0000
0000
0000
1003
0000
0000
,
0020
0000
0000
0000
0000
0000
0000
0000
0000
0000
0000
0000
0000
0000
0000
0000
0000
0000
0000
0000
0000
0030
0100
0000
0000
0100
0000
0000
0000
0010
0000
0000
,
0000
1000
0000
0000
0000
0200
0000
0000
0000
0000
0000
0000
0000
0000
0000
0000
0010
0000
0000
0000
0000
0000
0000
0010
0000
0000
0000
0000
0010
0000
0000
0000
,
0010
0000
0000
0000
0000
0010
0000
0000
0010
0000
0000
0000
0000
0010
0000
0000
0000
0010
0000
0000
0000
0010
0000
0000
0000
0010
0000
0000
0000
0000
0000
0302
,
0000
0000
0100
0000
0000
0100
0000
0000
0000
0100
0000
0000
0100
0000
0000
0100
0000
0000
0000
0100
0000
0000
0000
0010
0000
0000
0000
0010
0000
0000
0010
0000
,
0000
0000
0010
0000
0000
0000
1000
0000
0000
0000
1000
0000
0000
0000
1000
0000
0000
0000
1000
0000
0000
0000
1000
0000
0000
0000
1000
0000
0000
0000
0000
0023
,
0000
0000
0100
0000
0000
0100
0000
0000
0000
0100
0000
0000
0000
0100
0000
0000
0100
0000
0000
0100
0000
0000
0001
0000
0000
0000
0001
0000
0000
0000
0001
0000
,
0000
0000
0001
0000
0000
0001
0000
0000
1000
0000
0000
1000
0000
0000
0000
1000
0000
0000
0000
1000
0000
0000
1000
0000
0000
0000
0000
0000
0000
0200
0030
0000
,
0000
0010
0000
0000
0000
0010
0000
0000
0000
0000
0010
0000
0000
0010
0000
0000
0000
0001
0000
0000
0000
0001
0000
0000
0000
0000
0001
0000
0000
0000
0001
0000
,
0000
1000
0000
0000
0000
1000
0000
0000
0000
1000
0000
0000
0000
1000
0000
0000
1000
0000
0000
0000
1000
0000
0000
0000
2000
0000
0000
0000
0000
0000
3000
0000
,
0300
0010
0000
0000
0010
0000
0000
0000
0000
0101
0000
0000
0000
0010
0000
0000
0000
0000
0110
0000
0000
0000
0010
0000
0000
0010
0100
0000
0000
0000
0001
0000
,
0000
0000
0010
0000
0000
0100
0000
0010
0000
0000
0000
0000
0100
0010
0000
0000
0000
0010
0000
0100
0000
0000
0001
0000
0000
0010
0000
0000
0100
0000
0000
0000
,
0000
0010
0000
0000
0100
0000
0010
0000
0000
0000
0002
0000
0000
0000
0000
0000
0000
0010
0000
0000
0000
0000
0000
0010
0000
0000
0100
0000
1000
0003
0100
0000
,
0010
0000
0010
0000
0100
0000
0010
0000
0100
0010
0000
0100
0010
0000
0100
0000
,
0010
0000
0000
0000
0001
0000
0000
0010
0000
0000
0100
0000
1000
0000
0000
0200
0000
0000
0000
0000
0000
0000
0310
0000
0000
0010
0000
0000
0000
0010
0000
0000
,
0000
0100
0000
0000
0010
0000
0100
0000
0000
0010
0000
0000
0001
0000
0010
0000
0000
0100
0000
0000
1000
0000
0000
0100
0010
0000
0000
0000
0000
0010
0000
0000
,
0000
0002
0000
0000
0000
0000
0000
0000
0000
0000
0000
0000
0000
0000
0000
0000
0000
0003
0200
0000
0000
0000
0000
0000
0000
0000
0000
0000
0000
0320
0000
0000
,
0000
0000
0000
0000
0000
0000
0000
0000
0000
0000
0000
0000
0000
0000
0000
0000
0000
0000
0000
0000
0000
0000
0000
0000
0000
0000
0000
0030
0000
0000
0000
0100
,
0000
0000
0100
0010
0000
0100
0001
0000
0000
0000
1010
0000
0000
0000
0101
0000
0000
0000
0110
0000
0000
0000
1001
0000
0000
0110
0000
0000
0000
0101
0000
0000
,
0000
1010
0000
0000
0000
0101
0000
0000
0010
0100
0000
0000
0001
1000
0000
0000
0000
0110
0000
0000
0000
0101
0000
0000
0000
1010
0000
0000
0000
0101
0000
0000
,
0000
0110
0000
0000
0000
1001
0000
0000
0000
0110
0000
0000
0000
0101
0000
0000
0100
0001
0000
0000
0100
0000
0000
0000
0100
0010
0000
0000
1000
0010
0000
0000
,
1000
0010
0001
0000
0000
0110
0000
0000
0000
0101
0000
0000
0000
1000
0010
0000
0000
0000
0101
0000
0000
0000
0110
0000
0000
0001
1000
0000
0000
0010
0100
0000
,
0000
0101
0000
0000
0000
0101
0000
0000
0000
0000
0110
0000
0000
1001
0000
0000
0000
0010
0100
0000
0000
0000
0101
0000
0000
0000
1010
0000
0000
0001
0100
0000
,
0000
0000
0110
0000
0000
0000
1001
0000
0000
0000
0110
0000
0000
0101
0000
0000
0000
0010
1000
0000
0000
0001
0100
0000
0000
0110
0000
0000
0000
0101
0000
0000
,
0000
0102
0000
0000
0000
0000
0000
0000
0000
0000
0000
0000
0000
0000
0000
0000
0003
0020
0000
0000
0000
0000
0000
0000
0000
0000
0000
0000
0000
0230
0000
0000
,
0000
0000
0000
0000
0000
0000
0000
0000
0000
0000
0000
0000
0000
0000
0000
0000
0000
0000
0000
0000
0010
0300
0000
0000
0020
0000
0000
0000
0000
0000
0000
0000
,
0000
0000
0030
0200
0000
0000
0000
0000
0000
0000
0000
0000
0000
0000
0300
0000
0000
0000
0000
0000
0000
0000
0000
0000
0000
0000
0000
0000
0000
0000
0000
0000
;
